<?xml version="1.0" standalone="no"?>
<!DOCTYPE svg PUBLIC "-//W3C//DTD SVG 1.1//EN" "http://www.w3.org/Graphics/SVG/1.1/DTD/svg11.dtd" >
<svg xmlns="http://www.w3.org/2000/svg">
<metadata></metadata>
<defs>
<font id="oswald_regularregular" horiz-adv-x="1007" >
<font-face units-per-em="2048" ascent="1638" descent="-410" />
<missing-glyph horiz-adv-x="468" />
<glyph horiz-adv-x="0" />
<glyph unicode="&#xd;" horiz-adv-x="682" />
<glyph unicode=" "  horiz-adv-x="468" />
<glyph unicode="&#x09;" horiz-adv-x="468" />
<glyph unicode="&#xa0;" horiz-adv-x="468" />
<glyph unicode="!" horiz-adv-x="425" d="M102 0v225h221v-225h-221zM102 1658h221l-73 -1303h-77z" />
<glyph unicode="&#x22;" horiz-adv-x="778" d="M175 1150v508h197l-79 -508h-118zM480 1150v508h197l-79 -508h-118z" />
<glyph unicode="#" horiz-adv-x="995" d="M65 593v164h113l29 200h-137v165h160l78 536h219l-78 -536h183l78 536h218l-78 -536h83v-165h-105l-31 -200h131v-164h-154l-85 -593h-219l85 593h-182l-85 -593h-218l83 593h-88zM396 757h183l30 200h-183z" />
<glyph unicode="$" horiz-adv-x="1005" d="M79 464l206 56q22 -356 235 -356q89 0 135.5 49.5t46.5 145.5q0 53 -12.5 97t-41 84t-54 66.5t-72.5 70.5l-278 247q-84 76 -122.5 160.5t-38.5 206.5q0 176 100 276.5t274 106.5v136h71v-137q171 -12 257.5 -117t104.5 -311l-195 -54q-4 54 -11 96t-23 84.5t-39 69 t-61 42t-88 12.5q-183 -13 -183 -182q0 -73 25 -122t84 -103l280 -247q109 -98 173.5 -210t64.5 -254q0 -167 -93.5 -271t-248.5 -121v-142h-70v140q-202 4 -307.5 132.5t-118.5 348.5z" />
<glyph unicode="%" horiz-adv-x="1825" d="M74 1163v129q0 188 75.5 284t245.5 96t246 -92.5t76 -276.5v-146q0 -378 -322 -378q-321 0 -321 384zM274 1155q0 -46 5 -80.5t17 -65.5t37 -48t62 -17q38 0 63.5 17t38 49t17 66.5t4.5 80.5v146q0 37 -2.5 64.5t-10 54.5t-21 44.5t-36 28t-53.5 10.5q-39 0 -64 -15.5 t-37 -46t-16 -63t-4 -79.5v-146zM592 0l456 1661h189l-455 -1661h-190zM1109 374v129q0 188 75.5 284t245.5 96q169 0 245 -92.5t76 -277.5v-145q0 -185 -77 -281.5t-244 -96.5q-321 0 -321 384zM1309 366q0 -46 5 -80.5t17 -65.5t37 -48t62 -17q38 0 63 17t37.5 49t17 66 t4.5 80v147q0 47 -4.5 79.5t-16.5 62.5t-37.5 45t-63.5 15q-39 0 -64 -15.5t-37 -46t-16 -63t-4 -79.5v-146z" />
<glyph unicode="&#x26;" horiz-adv-x="1241" d="M118 355q0 144 65 260t177 218q-15 29 -46.5 86.5t-50 94.5t-40.5 89t-32.5 102.5t-10.5 101.5q0 166 96 266.5t258 100.5q153 0 252.5 -83.5t99.5 -224.5q0 -77 -28 -156t-79 -151t-97 -124.5t-106 -110.5l250 -394q56 113 81 332h218q0 -114 -48.5 -246.5 t-112.5 -222.5q29 -36 72.5 -60.5t89.5 -24.5v-224q-10 -1 -29 -1q-22 0 -43.5 5t-37.5 10.5t-37.5 19t-31.5 20t-32 26.5t-27.5 25.5t-28.5 29t-25 25.5q-59 -74 -149.5 -118t-206.5 -44q-168 0 -264 103t-96 270zM338 355q0 -83 33 -137.5t107 -54.5q121 0 222 123 l-253 391q-50 -63 -79.5 -148.5t-29.5 -173.5zM399 1307q0 -140 100 -364q69 81 118.5 197.5t49.5 225.5q0 59 -36 93.5t-97 34.5q-68 0 -101.5 -54.5t-33.5 -132.5z" />
<glyph unicode="'" horiz-adv-x="750" d="M175 1150v508h197l-79 -508h-118z" />
<glyph unicode="(" horiz-adv-x="610" d="M150 636q0 137 1.5 218t9.5 204.5t22.5 198.5t44 163t71 136.5t105 82.5t145.5 34v-147q-46 -1 -79.5 -33.5t-53.5 -105.5t-32 -138.5t-17 -187t-6 -194t-1 -212.5v-6.5v-6v-6.5v-25q0 -140 1 -212.5t6 -192.5t17 -185t32 -136.5t53.5 -103t79.5 -32.5v-146 q-82 1 -145.5 34.5t-105 82t-71 136.5t-44 162t-22.5 197t-9.5 204t-1.5 217z" />
<glyph unicode=")" horiz-adv-x="532" d="M60 -250q46 1 80 33.5t54 105.5t32 138.5t17 187t6 194t1 212.5v19v25q0 140 -1 212.5t-6 192.5t-17 185t-32 136.5t-54 103t-80 32.5v146q82 0 146 -33.5t105.5 -82t71 -136.5t44 -162t22.5 -197.5t9.5 -204t1.5 -217.5q0 -105 -0.5 -169t-4.5 -162.5t-11.5 -161 t-21 -144t-33.5 -133t-50.5 -107t-69.5 -87t-92 -52t-117 -21.5v147z" />
<glyph unicode="*" horiz-adv-x="815" d="M93 1358l52 139l231 -122l-24 281h166l-26 -281l232 122l52 -139l-242 -94l164 -226l-132 -78l-132 256l-132 -256l-130 78l162 227z" />
<glyph unicode="+" horiz-adv-x="850" d="M51 769v165h287v334h164v-334h297v-165h-297v-335h-164v335h-287z" />
<glyph unicode="," horiz-adv-x="382" d="M81 -174q56 18 87.5 64.5t31.5 109.5h-117v235h227v-230q0 -108 -47 -173.5t-146 -100.5z" />
<glyph unicode="-" horiz-adv-x="658" d="M100 535v166h458v-166h-458z" />
<glyph unicode="." horiz-adv-x="386" d="M100 0v243h220v-243h-220z" />
<glyph unicode="/" horiz-adv-x="756" d="M59 0l447 1658h190l-448 -1658h-189z" />
<glyph unicode="0" horiz-adv-x="1006" d="M93 472v713q0 229 101 359t309 130q207 0 309 -130.5t102 -358.5v-713q0 -225 -103 -357.5t-308 -132.5q-203 0 -306.5 133.5t-103.5 356.5zM313 470q0 -308 190 -308t190 308v717q0 67 -7.5 117.5t-27.5 96t-59 70t-96 24.5t-96 -24.5t-59 -70t-27.5 -96t-7.5 -117.5 v-717z" />
<glyph unicode="1" horiz-adv-x="957" d="M166 1312v166q253 65 342 180h166v-1658h-219v1373q-1 -2 -17.5 -6t-42 -9.5t-55.5 -12t-60.5 -12t-55 -10.5t-41.5 -8z" />
<glyph unicode="2" horiz-adv-x="979" d="M83 0v156l422 658q13 20 44.5 68.5t44 69t34.5 62.5t31 72t17 73t8 88q0 247 -165 247q-197 0 -197 -306v-55h-219v56q0 234 96 359.5t308 125.5q198 0 298 -112t100 -317q0 -73 -11.5 -134t-40.5 -122.5t-50 -96.5t-67 -106q-9 -13 -13 -20l-381 -582h524v-184h-783z " />
<glyph unicode="3" horiz-adv-x="956" d="M81 408v55h219v-36q1 -62 9.5 -106t28 -82t57 -57t92.5 -19q47 0 81 14.5t55 40t33 65.5t16.5 83.5t4.5 102.5q0 140 -50.5 219t-165.5 87q-8 1 -31 1v219h28q118 4 168.5 61.5t50.5 190.5q0 122 -41 185t-146 63q-56 0 -93.5 -19t-58 -57t-29 -83t-9.5 -108v-33h-219v55 q0 201 104 312.5t305 111.5q200 0 303.5 -112.5t103.5 -314.5q0 -146 -63 -237.5t-174 -124.5q113 -36 175 -142.5t62 -273.5q0 -231 -99 -359t-311 -128q-199 0 -302.5 112t-103.5 314z" />
<glyph unicode="4" horiz-adv-x="1006" d="M82 436v244l426 979h272v-1015h184v-208h-184v-436h-220v436h-478zM303 644h257v737z" />
<glyph unicode="5" horiz-adv-x="975" d="M96 464h219q0 -50 3.5 -89.5t15 -82t31 -70.5t54.5 -46t82 -18q38 0 67 10.5t49 27.5t34 47t21.5 59t12 74.5t5.5 82.5t1 93q0 75 -3.5 124.5t-14.5 97t-31.5 74.5t-54.5 43.5t-83 16.5q-63 0 -111 -39.5t-73 -97.5h-187v887h715v-218h-517l-13 -459q87 92 239 92 q98 0 168 -36t109.5 -104t57.5 -154t18 -197q0 -107 -11.5 -193.5t-40 -164t-74.5 -129.5t-118.5 -82t-167.5 -30q-216 0 -309 122t-93 359z" />
<glyph unicode="6" horiz-adv-x="1002" d="M110 526v559q0 127 20.5 228.5t65.5 185t127 129.5t195 46q193 0 297 -104.5t109 -299.5q0 -3 0.5 -11.5t0.5 -12.5h-220q0 126 -41 187t-145 61q-190 0 -190 -355v-252q34 53 96.5 84t146.5 31q81 0 142.5 -22.5t102 -63t66 -101.5t36 -132t10.5 -160q0 -93 -14 -172.5 t-45.5 -148t-78.5 -117t-116.5 -76t-156.5 -27.5q-105 0 -184.5 42t-127.5 117t-72 172t-24 213zM329 475q0 -312 189 -312q53 0 91 24t59 67.5t30.5 96.5t9.5 119q0 52 -0.5 82.5t-4.5 75t-11 70t-21 55.5t-34 45.5t-50 26.5t-69 11q-64 0 -112.5 -33t-76.5 -81v-247z" />
<glyph unicode="7" horiz-adv-x="788" d="M56 1486v172h662v-106l-307 -1552h-211l300 1486h-444z" />
<glyph unicode="8" horiz-adv-x="979" d="M81 467q0 158 52.5 252t153.5 155q-185 123 -185 372q0 203 96.5 315.5t292.5 112.5q194 0 289.5 -112.5t95.5 -315.5q0 -250 -183 -372q100 -63 153 -157t53 -250q0 -235 -96.5 -360t-311.5 -125q-216 0 -313 125t-97 360zM291 463q0 -70 9 -122t30.5 -96t62 -66.5 t98.5 -22.5t98 23t61 67t29.5 96t8.5 121q0 85 -16.5 148.5t-62.5 108.5t-118 46q-56 -1 -96 -26t-62 -68.5t-32 -95t-10 -113.5zM318 1258q0 -57 8 -103.5t26 -89t53.5 -66.5t85.5 -25q49 1 84 25t53 66.5t26 89t8 103.5q0 110 -41 177.5t-130 67.5q-91 0 -132 -67 t-41 -178z" />
<glyph unicode="9" horiz-adv-x="1002" d="M90 1134q0 117 23 212.5t71 170t128.5 116t188.5 41.5q105 0 184.5 -42t127.5 -116.5t72 -171.5t24 -213v-558q0 -101 -12 -185.5t-41.5 -161t-75 -129.5t-116.5 -84t-162 -31q-194 0 -299 106.5t-108 304.5q-1 4 -1 18h220q0 -127 41 -187.5t148 -60.5q186 0 186 356 v251q-71 -114 -243 -114q-100 0 -170.5 33.5t-110.5 99t-57.5 149.5t-17.5 196zM311 1187q0 -53 0.5 -83.5t4.5 -74.5t11 -69.5t21 -55t34 -45.5t50 -26.5t69 -10.5q121 0 188 113v247q0 312 -188 312q-52 0 -90.5 -24.5t-59.5 -68.5t-30.5 -96.5t-9.5 -117.5z" />
<glyph unicode=":" horiz-adv-x="403" d="M123 197v233h221v-233h-221zM123 849v234h221v-234h-221z" />
<glyph unicode=";" horiz-adv-x="441" d="M119 2q119 8 119 138h-117v232h227v-228q0 -114 -45.5 -174t-147.5 -64zM121 913v244h220v-244h-220z" />
<glyph unicode="&#x3c;" horiz-adv-x="764" d="M60 487v220l586 417v-220l-421 -306l421 -305v-220z" />
<glyph unicode="=" horiz-adv-x="850" d="M110 572v166h629v-166h-629zM110 934v167h629v-167h-629z" />
<glyph unicode="&#x3e;" horiz-adv-x="764" d="M118 73v220l422 307l-422 304v220l588 -415v-220z" />
<glyph unicode="?" horiz-adv-x="997" d="M120 1244q-38 198 69.5 317t308.5 119q197 0 306 -112t109 -315q0 -93 -23.5 -171.5t-83.5 -160t-101 -126.5t-136 -139l-42 -42v-199h-196v255q84 74 141 132.5t113.5 134t85 156t28.5 166.5q0 101 -56 165t-147 64q-94 0 -139 -55.5t-30 -147.5l10 -73l-203 -38zM322 0 v225h219v-225h-219z" />
<glyph unicode="@" horiz-adv-x="1852" d="M120 577q0 217 44.5 395t126 304.5t197 212.5t255.5 127.5t303 41.5q145 0 266 -43.5t204 -118.5t140 -177t82.5 -216.5t24.5 -239.5q-1 -182 -61 -332t-172.5 -240t-257.5 -90q-87 0 -143.5 51t-59.5 138q-18 -74 -65.5 -126.5t-128.5 -59.5q-99 -9 -170 42t-104 136 t-33 190q0 115 36 233t98 214.5t154.5 157.5t196.5 61q32 0 69 -16t63 -37l21 35h159l-116 -752q-5 -37 -6 -56.5t1.5 -43t15.5 -34t36 -10.5q85 0 155.5 69.5t110.5 188t41 259.5q1 105 -18.5 199.5t-64.5 177t-110.5 142t-162.5 93.5t-215 34q-322 -1 -517 -245t-195 -656 q0 -173 48.5 -306t137 -216.5t208.5 -126t268 -42.5q176 0 371 56l39 -159q-229 -66 -430 -66q-145 0 -271 32.5t-231.5 100.5t-180.5 167t-117 239.5t-42 311.5zM772 570q0 -96 38 -153.5t108 -43.5q52 8 95.5 62t61.5 153l71 477q-27 11 -56 11q-82 0 -155 -67.5 t-118 -185.5t-45 -253z" />
<glyph unicode="A" d="M38 0l354 1658h223l354 -1658h-220l-76 418h-337l-79 -418h-219zM366 583h277l-139 749z" />
<glyph unicode="B" horiz-adv-x="1073" d="M130 0v1658h379q226 0 335 -101t109 -314q0 -317 -238 -350q147 -36 214.5 -138.5t67.5 -280.5q0 -224 -105 -349t-321 -125h-441zM361 166h156q150 0 205 70.5t55 237.5q0 159 -65.5 237.5t-213.5 78.5h-137v-624zM361 966h136q143 0 198.5 63.5t55.5 213.5 q0 49 -7 85.5t-18 62.5t-33.5 43.5t-45.5 28t-62.5 16t-76 7t-93.5 1.5h-54v-521z" />
<glyph unicode="C" horiz-adv-x="1054" d="M99 533v586q0 105 12.5 187t43.5 153t81 117t127.5 72t180.5 26q224 0 321 -121t97 -356v-132h-219v117q0 38 -0.5 59.5t-2 53.5t-5.5 50t-10.5 42t-16.5 37.5t-25 29t-34 23t-45 12.5t-58 5q-48 0 -84 -10.5t-59 -33t-37.5 -49.5t-21.5 -69.5t-9.5 -82t-2.5 -97.5v-656 q0 -187 47 -260t167 -73q46 0 79.5 10t55 33t34.5 48t19 67.5t7.5 78.5t1.5 94v122h219v-123q0 -95 -12 -170t-41 -140.5t-76 -108.5t-120 -67.5t-169 -24.5q-103 0 -181 28t-127.5 76t-81 119.5t-43.5 150.5t-12 177z" />
<glyph unicode="D" horiz-adv-x="1079" d="M130 0v1658h360q269 0 379.5 -122t110.5 -384v-610q0 -273 -109.5 -407.5t-363.5 -134.5h-377zM361 166h130q53 0 93.5 10.5t67.5 25t45.5 46.5t28 59t14.5 80t6 90.5t1 108.5v539q0 60 -2 101t-8 82t-18 67t-31 49.5t-47 36t-66 19.5t-89 7h-125v-1321z" />
<glyph unicode="E" horiz-adv-x="834" d="M130 0v1658h642v-171h-411v-548h334v-165h-334v-608h416v-166h-647z" />
<glyph unicode="F" horiz-adv-x="800" d="M130 0v1658h640v-166h-409v-551h317v-165h-317v-776h-231z" />
<glyph unicode="G" horiz-adv-x="1096" d="M99 544v555q0 114 12.5 200t43 159t80.5 119t127 71.5t181 25.5q230 0 331 -117t101 -368v-61h-217v52q0 70 -4 115.5t-16.5 86.5t-36 63.5t-61.5 35.5t-94 13q-43 0 -76 -9.5t-56 -25t-38.5 -43t-24.5 -54t-14 -68t-6 -75.5t-1 -85v-614q0 -191 46 -274t176 -83t178 90 t48 289v116h-210v164h420v-822h-147l-22 191q-75 -211 -294 -211q-226 0 -326 142.5t-100 421.5z" />
<glyph unicode="H" horiz-adv-x="1148" d="M130 0v1658h231v-716h426v716h231v-1658h-231v777h-426v-777h-231z" />
<glyph unicode="I" horiz-adv-x="507" d="M141 0v1658h227v-1658h-227z" />
<glyph unicode="J" horiz-adv-x="617" d="M14 -39v166q79 0 123 9.5t72 38.5t37 75t9 128v1280h231v-1284q0 -111 -16.5 -185t-57 -127t-111 -77t-177.5 -24h-110z" />
<glyph unicode="K" horiz-adv-x="1014" d="M130 0v1658h231v-781l380 781h215l-328 -731l381 -927h-225l-333 822l-90 -169v-653h-231z" />
<glyph unicode="L" horiz-adv-x="813" d="M130 0v1658h231v-1492h423v-166h-654z" />
<glyph unicode="M" horiz-adv-x="1352" d="M125 0l31 1658h226l293 -1345l295 1345h226l31 -1658h-187l-18 1205l-281 -1205h-130l-279 1205l-18 -1205h-189z" />
<glyph unicode="N" horiz-adv-x="1081" d="M130 0v1658h157l471 -1101v1101h193v-1658h-148l-478 1133v-1133h-195z" />
<glyph unicode="O" horiz-adv-x="1104" d="M99 520v628q0 259 105.5 392.5t347.5 133.5q241 0 347 -134.5t106 -391.5v-629q0 -259 -106.5 -398t-346.5 -139q-124 0 -212.5 37t-140.5 109t-76 168t-24 224zM332 470q0 -76 8.5 -127.5t31.5 -94.5t67.5 -64t112.5 -21t112.5 21t67.5 64t31.5 94.5t8.5 127.5v726 q0 75 -8.5 125t-31.5 92t-67.5 61.5t-112.5 19.5t-112.5 -19.5t-67.5 -61.5t-31.5 -92t-8.5 -125v-726z" />
<glyph unicode="P" horiz-adv-x="983" d="M130 0v1658h411q216 0 313 -116.5t97 -341.5q0 -202 -104.5 -315t-304.5 -113h-181v-772h-231zM361 938h105q152 0 209 54t57 207q0 63 -3 103.5t-13.5 76.5t-27.5 55.5t-47.5 33.5t-71 19t-100.5 5h-108v-554z" />
<glyph unicode="Q" horiz-adv-x="1107" d="M99 520v628q0 258 106 392t348 134q241 0 347.5 -134.5t106.5 -391.5v-629q0 -397 -243 -499q103 -132 163 -173l-36 -182q-129 65 -299 318q-6 0 -19 -0.5t-20 -0.5q-242 0 -348 138.5t-106 399.5zM332 470q0 -75 8.5 -127t32 -95t68 -64t112.5 -21t112.5 21t68 64 t32 95t8.5 127v726q0 75 -8.5 125.5t-32 92t-68 61t-112.5 19.5t-112.5 -19.5t-68 -61t-32 -92t-8.5 -125.5v-726z" />
<glyph unicode="R" horiz-adv-x="1063" d="M130 0v1658h333q252 0 369.5 -103t117.5 -336q0 -320 -205 -387l237 -832h-224l-218 778h-179v-778h-231zM361 944h87q151 0 215.5 59.5t64.5 215.5q0 151 -55.5 212t-209.5 61h-102v-548z" />
<glyph unicode="S" horiz-adv-x="969" d="M79 464l206 56q22 -356 235 -356q89 0 135.5 49.5t46.5 145.5q0 53 -12.5 97t-41 84t-54 66.5t-72.5 70.5l-278 247q-84 76 -122.5 160.5t-38.5 206.5q0 180 104.5 280.5t285.5 102.5h11q191 0 287 -102q99 -106 119 -327l-195 -54q-4 54 -11 96t-23 84.5t-39 68.5 t-61 42q-32 13 -72 13h-16q-183 -13 -183 -182q0 -73 25 -122t84 -103l280 -247q109 -98 173.5 -210t64.5 -254q0 -182 -110 -288.5t-287 -106.5q-209 0 -318.5 129t-122.5 353z" />
<glyph unicode="T" horiz-adv-x="820" d="M-3 1487v171h826v-171h-292v-1487h-231v1487h-303z" />
<glyph unicode="U" horiz-adv-x="1113" d="M115 559v1099h220v-1110q0 -71 4 -123t18 -104.5t37.5 -84.5t64.5 -52.5t98 -20.5t97.5 20.5t64 53t37.5 84.5t18 104t4 123v1110h220v-1099q0 -111 -11 -194.5t-40.5 -158t-78.5 -122t-127 -75t-184 -27.5t-184.5 27.5t-127.5 75t-78.5 122t-40.5 158t-11 194.5z" />
<glyph unicode="V" horiz-adv-x="1035" d="M48 1658h216l262 -1221l250 1221h211l-367 -1658h-202z" />
<glyph unicode="W" horiz-adv-x="1493" d="M73 1658h194l177 -1192l224 1187h164l225 -1192l173 1197h189l-266 -1658h-168l-231 1228l-234 -1228h-176z" />
<glyph unicode="X" horiz-adv-x="987" d="M27 0l345 868l-340 790h215l252 -585l230 585h215l-349 -809l366 -849h-216l-269 624l-235 -624h-214z" />
<glyph unicode="Y" horiz-adv-x="986" d="M25 1658h215l253 -799l250 799h218l-357 -1073v-585h-221v585z" />
<glyph unicode="Z" horiz-adv-x="853" d="M78 0v166l487 1326h-457v166h703v-100l-514 -1392h515v-166h-734z" />
<glyph unicode="[" horiz-adv-x="697" d="M130 -377v2035h450v-112h-231v-1811h231v-112h-450z" />
<glyph unicode="\" horiz-adv-x="756" d="M59 1658h189l448 -1658h-190z" />
<glyph unicode="]" horiz-adv-x="634" d="M54 -265h231v1810h-231v113h451v-2035h-451v112z" />
<glyph unicode="^" horiz-adv-x="908" d="M69 998l275 660h221l274 -660h-208l-177 497l-177 -497h-208z" />
<glyph unicode="_" horiz-adv-x="705" d="M0 -109h705v-166h-705v166z" />
<glyph unicode="`" horiz-adv-x="569" d="M116 1658h220l117 -405h-110z" />
<glyph unicode="a" horiz-adv-x="872" d="M85 258q0 84 27.5 152.5t58.5 110.5t107.5 87.5t118.5 64.5t147 62q6 3 9 4v85q0 115 -23.5 163.5t-95.5 48.5q-124 0 -124 -168v-59l-217 8q0 18 2 44q10 177 99 258t255 81q171 0 247 -93.5t76 -281.5v-541q0 -134 20 -284h-200q-21 99 -29 175q-25 -80 -85.5 -136 t-154.5 -56q-101 0 -169.5 83.5t-68.5 191.5zM305 325q0 -72 27 -112t78 -40q42 0 82.5 33t60.5 65v335q-115 -65 -152 -96q-96 -78 -96 -185z" />
<glyph unicode="b" horiz-adv-x="916" d="M114 0v1658h219v-568q97 110 225 110q51 0 92.5 -17.5t68.5 -45.5t48 -68t32 -79t17.5 -85t8.5 -80t2 -70v-286q0 -486 -293 -486q-106 0 -201 104v-87h-219zM333 208q72 -52 157 -52q27 0 47.5 10t33 33t20.5 47t11.5 64.5t4.5 73.5t1 84v287q0 50 -2.5 86t-10 73.5 t-21 61t-37 38t-56.5 14.5q-71 0 -148 -60v-760z" />
<glyph unicode="c" horiz-adv-x="841" d="M89 454v274q0 119 14 200t51 145.5t106 95.5t174 31q95 0 159 -23t99.5 -72t50 -115t14.5 -162v-71h-198v72q0 117 -26 163.5t-96 46.5q-80 0 -104.5 -55.5t-24.5 -210.5v-373q0 -150 27.5 -202.5t102.5 -52.5q32 0 54.5 10.5t35.5 27t20 44.5t9 55.5t2 68.5v96h198v-82 q0 -95 -15 -162t-51 -118.5t-99.5 -76.5t-157.5 -25q-86 0 -147.5 22.5t-99.5 61t-60 100t-30 128.5t-8 159z" />
<glyph unicode="d" horiz-adv-x="905" d="M89 465v230q0 88 6.5 157t26 136.5t50.5 112t83.5 72t122.5 27.5q107 0 197 -92v550h219v-1658h-219v76q-86 -93 -189 -93h-3q-153 0 -223 111q-72 112 -71 371zM308 446q0 -56 2.5 -95t10.5 -78.5t22 -63t39 -38.5t59 -15q64 0 134 44v776q-72 52 -138 52 q-129 0 -129 -247v-335z" />
<glyph unicode="e" horiz-adv-x="862" d="M89 456v271q0 123 16.5 207.5t55.5 146t107.5 90.5t169.5 29q63 0 112 -12t84.5 -33t60.5 -56.5t40.5 -75t24.5 -96t12 -112.5t3 -131l-1 -96h-466v-158v-13q0 -50 0.5 -74t4 -62.5t11.5 -57.5t22 -40t36.5 -29.5t54.5 -8.5q71 0 96.5 48.5t25.5 146.5v72h214v-46 q0 -383 -334 -383q-104 0 -173 29.5t-107.5 92t-54 146t-15.5 205.5zM308 707h251v107q0 47 -2.5 79t-10 62t-20.5 47t-35.5 27t-54.5 10q-78 0 -103 -56t-25 -212v-64z" />
<glyph unicode="f" horiz-adv-x="588" d="M38 1021v163h143v61q0 72 5 122t21 97t43.5 75t74 44.5t112.5 16.5q54 0 142 -11v-164q-80 10 -81 10q-60 0 -79.5 -37.5t-19.5 -114.5v-99h181v-163h-181v-1021h-218v1021h-143z" />
<glyph unicode="g" horiz-adv-x="891" d="M40 -183q0 92 48.5 159t122.5 107q-56 17 -85.5 51.5t-29.5 76.5q0 61 31 107t101 107q-70 54 -103.5 135.5t-33.5 218.5q0 207 84 314t248 107q181 0 244 -130q15 21 61 59.5t99 62.5l34 15l54 -142q-40 -9 -112.5 -35.5t-88.5 -39.5q15 -36 26 -101.5t11 -116.5 q0 -94 -16.5 -166.5t-53.5 -128.5t-102 -85.5t-156 -29.5q-17 0 -61 6.5t-51 8.5q-1 -2 -9 -15t-11 -19t-8.5 -17.5t-8 -21t-2.5 -18.5q0 -23 23.5 -35t75.5 -17q5 -1 93.5 -9t90.5 -8q274 -26 274 -288q0 -159 -84.5 -227.5t-265.5 -68.5q-64 0 -112 2t-102 8.5t-91.5 19 t-69.5 32.5t-48 50.5t-16 71.5zM226 -95q0 -36 17 -56t72.5 -31.5t160.5 -11.5q95 0 140.5 28t45.5 89q0 56 -34.5 84t-127.5 37l-187 15q-29 -24 -58 -65.5t-29 -88.5zM281 779q0 -49 3 -85t12 -71t24.5 -57t41 -35.5t61.5 -13.5q87 0 114.5 61.5t27.5 200.5q0 55 -2.5 92 t-11 73t-23.5 57t-40.5 34t-61.5 13q-86 0 -115.5 -64t-29.5 -205z" />
<glyph unicode="h" horiz-adv-x="912" d="M116 0v1658h219v-597q146 139 297 139q50 0 86 -21t55 -57.5t27 -76.5t8 -87v-958h-219v894q0 68 -19.5 101t-73.5 33q-68 0 -161 -78v-950h-219z" />
<glyph unicode="i" horiz-adv-x="468" d="M125 0v1184h219v-1184h-219zM125 1359v230h220v-230h-220z" />
<glyph unicode="j" horiz-adv-x="471" d="M-38 -127q26 -6 57 -6q123 0 123 143v1174h219v-1197q0 -137 -76.5 -211.5t-211.5 -74.5q-75 0 -111 14v158zM142 1359v230h220v-230h-220z" />
<glyph unicode="k" horiz-adv-x="878" d="M114 3v1658h219v-990l321 512l229 1l-279 -464l270 -720h-218l-221 607l-102 -153v-451h-219z" />
<glyph unicode="l" horiz-adv-x="469" d="M131 0v1658h220v-1658h-220z" />
<glyph unicode="m" horiz-adv-x="1392" d="M111 0v1184h202v-112q120 133 279 133q150 0 192 -150q124 150 295 150q93 0 151.5 -68t58.5 -208v-929h-202v916q-1 82 -27 114t-72 31h-3q-92 0 -185 -96q1 -12 1 -36v-929h-201v916q0 82 -26 114t-73 31h-3q-91 0 -185 -97v-964h-202z" />
<glyph unicode="n" horiz-adv-x="900" d="M111 0v1184h219v-117q140 133 289 133q50 0 86.5 -21t55.5 -57.5t27 -76.5t8 -87v-958h-219v894q0 68 -20 101t-74 33q-66 0 -153 -73v-955h-219z" />
<glyph unicode="o" horiz-adv-x="868" d="M89 420v343q0 104 17.5 181.5t56.5 136.5t106.5 89t164.5 30q187 0 266 -112t79 -325v-343q0 -213 -79 -325t-266 -112q-97 0 -164.5 30t-106.5 89t-56.5 136.5t-17.5 181.5zM308 406q0 -38 0.5 -57t2.5 -52t6.5 -50.5t14 -40t22.5 -34t33.5 -19.5t46.5 -8q30 0 52.5 9 t35.5 30t21 40.5t11.5 56t4 59t0.5 66.5v371q0 38 -0.5 57t-2.5 52t-6.5 50.5t-13.5 40.5t-22.5 34t-33.5 19.5t-46 8.5t-46.5 -8.5t-33.5 -19.5t-22.5 -34t-14 -40.5t-6.5 -50.5t-2.5 -52t-0.5 -57v-371z" />
<glyph unicode="p" horiz-adv-x="914" d="M111 -390v1574h219v-95q94 111 225 111q59 0 105.5 -22.5t74.5 -62t47.5 -84t28 -99t11.5 -94.5t3 -83v-286q0 -486 -294 -486q-106 0 -201 105v-478h-219zM330 208q72 -52 157 -52q28 0 48 10t33 33t21 47t11.5 64.5t4.5 73.5t1 84v287q0 50 -2.5 86t-10 73.5t-21 61 t-37 38t-56.5 14.5q-75 0 -149 -61v-759z" />
<glyph unicode="q" horiz-adv-x="907" d="M91 465v230q0 111 12 194.5t42 157.5t89.5 113.5t146.5 39.5q105 0 197 -92v76h218v-1574h-218v466q-86 -93 -190 -93h-3q-152 0 -223 111q-71 112 -71 371zM310 446q0 -56 2.5 -95t10.5 -78.5t22 -63t39 -38.5t59 -15q65 0 135 44v776q-74 52 -139 52q-129 0 -129 -247 v-335z" />
<glyph unicode="r" horiz-adv-x="658" d="M116 0v1184h219v-169q61 102 125.5 143t136.5 41q20 0 36 -2v-242q-61 23 -120 23q-55 0 -96.5 -24.5t-81.5 -88.5v-865h-219z" />
<glyph unicode="s" horiz-adv-x="765" d="M51 316l183 55q13 -115 51 -170.5t109 -55.5q59 1 96 39q34 36 34 88v9q-5 88 -96 166l-202 173q-72 62 -110 128q-36 63 -36 152v9q4 139 85 215t221 76q134 0 211.5 -87.5t89.5 -223.5l-148 -55q-13 100 -46 152.5t-99 52.5q-53 0 -86 -35t-32 -86q0 -68 59 -120 l210 -192q79 -69 123.5 -143t44.5 -177q0 -148 -88.5 -225.5t-239.5 -77.5q-144 0 -232.5 90.5t-101.5 242.5z" />
<glyph unicode="t" horiz-adv-x="631" d="M46 1038v146h124v345h219v-345h190v-146h-190v-757q0 -71 22.5 -100t85.5 -29q47 0 81 5v-162q-96 -12 -152 -12q-135 0 -194.5 71t-61.5 212v772h-124z" />
<glyph unicode="u" horiz-adv-x="901" d="M103 226v958h219v-894q0 -68 20 -101t74 -33q66 0 153 73v955h219v-1184h-219v117q-140 -133 -289 -133q-50 0 -86.5 21t-55.5 57.5t-27 76.5t-8 87z" />
<glyph unicode="v" horiz-adv-x="788" d="M31 1184h220l146 -953l147 953h213l-224 -1184h-268z" />
<glyph unicode="w" horiz-adv-x="1204" d="M58 1184h180l123 -872l158 872h167l157 -869l124 869h179l-195 -1184h-186l-160 835l-160 -835h-198z" />
<glyph unicode="x" horiz-adv-x="796" d="M19 0l265 622l-260 562h210l173 -375l154 375h215l-270 -589l275 -595h-209l-186 402l-160 -402h-207z" />
<glyph unicode="y" horiz-adv-x="802" d="M24 1184h222l159 -885l154 885h222l-284 -1249q-28 -126 -119.5 -178.5t-258.5 -52.5h-27v166q146 0 186 28q28 19 28 65q0 22 -6 50q-29 124 -38 163q-35 150 -118.5 504t-119.5 504z" />
<glyph unicode="z" horiz-adv-x="710" d="M65 0v147l363 873h-326v164h561v-119l-363 -900h355v-165h-590z" />
<glyph unicode="{" horiz-adv-x="615" d="M81 566v151q53 0 76.5 19t33 71t9.5 168v286q0 76 1.5 123t8 95t16 73.5t29.5 51t44.5 36.5t65.5 20.5t87.5 11.5t115.5 2v-162q-22 0 -37 -0.5t-29.5 -4.5t-23.5 -6t-17.5 -13t-12.5 -16.5t-8 -25t-5.5 -31t-2.5 -42t-1 -50v-62.5v-318q0 -146 -35 -215.5t-102 -85.5 q67 -16 102 -85.5t35 -215.5v-320v-62.5t1 -50t2.5 -42t5.5 -31.5t8 -25.5t12.5 -16t17.5 -12.5t23.5 -6t29.5 -4.5t37 -0.5v-162q-69 0 -115.5 2t-87.5 11.5t-65.5 20.5t-44.5 36.5t-29.5 51t-16 73.5t-8 95t-1.5 123v288q0 116 -9.5 168t-33 70.5t-76.5 18.5z" />
<glyph unicode="|" horiz-adv-x="490" d="M142 -304l2 1963h203l-1 -1963h-204z" />
<glyph unicode="}" horiz-adv-x="658" d="M90 -230q22 0 37 0.5t29.5 4.5t23.5 6t17.5 12.5t12.5 16t8 25.5t5.5 31.5t2.5 42t1 50v62.5v320q0 146 35 215.5t102 85.5q-67 16 -102 85.5t-35 215.5v318v62.5t-1 50t-2.5 42t-5.5 31t-8 25t-12.5 16.5t-17.5 13t-23.5 6t-29.5 4.5t-37 0.5v162q69 0 115 -2 t87.5 -11.5t65.5 -20.5t44.5 -36.5t29.5 -51t15.5 -73.5t8 -94.5t1.5 -123.5v-286q0 -116 9.5 -168t33 -71t76.5 -19v-151q-53 0 -76.5 -18.5t-33 -70.5t-9.5 -168v-288q0 -77 -1.5 -123.5t-8 -94.5t-15.5 -73.5t-29.5 -51t-44.5 -36.5t-65.5 -20.5t-87.5 -11.5t-115 -2v162 z" />
<glyph unicode="~" horiz-adv-x="915" d="M72 887q52 54 123.5 101.5t119.5 47.5q52 0 156 -58t148 -58q19 0 45.5 13t45.5 27t55 42l79 -101q-52 -60 -119 -109t-118 -49q-43 0 -101.5 29.5t-114 59t-91.5 29.5q-54 0 -150 -79z" />
<glyph unicode="&#xa1;" horiz-adv-x="425" d="M102 -364l72 1303h77l72 -1303h-221zM102 1069v225h221v-225h-221z" />
<glyph unicode="&#xa2;" horiz-adv-x="794" d="M89 454v274q0 109 11.5 185.5t41.5 139.5t85.5 98.5t139.5 45.5v146h70v-143q94 0 157 -23.5t98.5 -72.5t50 -114.5t14.5 -161.5v-71h-198v72q0 117 -26 163.5t-96 46.5q-80 0 -104.5 -55.5t-24.5 -210.5v-373q0 -150 27.5 -202.5t102.5 -52.5q32 0 54.5 10.5t35.5 27 t20 44.5t9 55.5t2 68.5v96h198v-82q0 -192 -70.5 -286.5t-251.5 -95.5v-145h-70v149q-68 8 -117.5 34.5t-79.5 66t-48 98.5t-24.5 121.5t-6.5 146.5z" />
<glyph unicode="&#xa3;" horiz-adv-x="816" d="M4 0v110l120 54v560h-120v164h120v189q0 76 2.5 134t11.5 123.5t24 112.5t41 92t62 73t88 45t118 17q287 0 290 -355v-67h-164q0 41 -2 72t-10 65t-21 56t-36.5 36t-56.5 14q-41 0 -67.5 -22.5t-38.5 -66.5t-16.5 -83t-5.5 -98v-337h244v-164h-244v-559h417v-165h-756z " />
<glyph unicode="&#xa4;" horiz-adv-x="1126" d="M78 411l163 162q-111 124 -111 293t111 293l-163 162l30 30l162 -162q123 116 293 115q170 1 293 -115l162 162l30 -30l-162 -162q110 -125 110 -293q0 -169 -111 -293l163 -162l-30 -30l-162 162q-123 -116 -293 -115q-170 -1 -293 115l-162 -162zM225 866 q0 -145 98 -247.5t240 -102.5q144 0 242 102.5t98 247.5q0 146 -98 248t-242 102q-142 0 -240 -102t-98 -248z" />
<glyph unicode="&#xa5;" horiz-adv-x="935" d="M20 1658h215l253 -799l250 799h218l-334 -1004h158v-142h-181v-133h181v-144h-181v-235h-221v235h-182v144h182v133h-182v142h160z" />
<glyph unicode="&#xa6;" horiz-adv-x="435" d="M130 -314v838h175v-838h-175zM130 820v838h175v-838h-175z" />
<glyph unicode="&#xa7;" horiz-adv-x="874" d="M87 870q0 100 46 168.5t127 102.5q-167 106 -167 256q0 129 94.5 203t250.5 74q143 0 228 -86t118 -223l-165 -55q-14 36 -27 62.5t-35 57.5t-52.5 48t-67.5 17q-58 0 -91.5 -32.5t-33.5 -92.5q0 -63 70 -114l266 -172q70 -46 107 -118.5t36 -163.5q-1 -175 -150 -258 q67 -57 105.5 -115.5t38.5 -137.5q0 -148 -94.5 -227.5t-252.5 -79.5q-144 0 -230.5 87.5t-118.5 225.5l165 55q63 -188 185 -188q61 0 98 30t41 88q9 95 -87 165l-235 153q-82 52 -125.5 113.5t-43.5 156.5zM306 870q0 -32 16.5 -63t41.5 -49l128 -93q40 18 69.5 54.5 t30.5 82.5q2 38 -16.5 77.5t-57.5 67.5l-114 78q-40 -22 -69 -63.5t-29 -91.5z" />
<glyph unicode="&#xa8;" horiz-adv-x="819" d="M122 1432v226h221v-226h-221zM474 1432v226h221v-226h-221z" />
<glyph unicode="&#xa9;" horiz-adv-x="1765" d="M60 843q0 129 29 250.5t93 234t158 196.5t233.5 134t309.5 50q142 0 263.5 -35t210 -97t156.5 -144t109.5 -179.5t62 -200t20.5 -209.5q0 -91 -14.5 -179.5t-46 -174.5t-78 -161.5t-114 -140t-150 -111t-189.5 -72.5t-230 -26q-122 0 -229.5 26t-190 72.5t-150 111 t-114 140.5t-78.5 162t-46.5 174t-14.5 179zM165 844q0 -119 26.5 -230t84 -211.5t140.5 -174.5t204.5 -117.5t267.5 -43.5t267.5 43.5t204.5 118t140.5 174.5t84 211t26.5 230t-26.5 230t-84 210.5t-140.5 173.5t-204.5 117t-267.5 43t-267.5 -43t-204.5 -117 t-140.5 -173.5t-84 -210t-26.5 -230.5zM502 746v219q0 99 9 171.5t34 136t67.5 103t110 61.5t161.5 22q106 0 177 -24t110.5 -75t55.5 -119.5t16 -169.5v-56h-214v56q0 122 -31 170.5t-110 48.5q-90 0 -120.5 -59t-30.5 -219v-323q0 -156 33.5 -211t118.5 -55q84 0 112 52.5 t28 161.5v66h214v-51q0 -99 -16.5 -169.5t-56.5 -123.5t-111 -79t-175 -26q-95 0 -163.5 23.5t-110.5 63t-66.5 104t-33 135t-8.5 166.5z" />
<glyph unicode="&#xaa;" horiz-adv-x="908" d="M157 884q0 52 13.5 95t41 75.5t58.5 56.5t77 45.5t84 36t93 33.5q9 3 14 4.5t13 4.5t14 5v108q0 84 -18.5 130.5t-69.5 46.5q-107 0 -107 -180h-180q3 155 78.5 246.5t210.5 91.5q83 0 138.5 -25.5t86 -79t42.5 -122.5t12 -169v-617h-176l-1 130q-31 -63 -88.5 -102.5 t-127.5 -39.5q-91 0 -149.5 64t-58.5 162zM352 930q0 -49 23 -77t61 -28q41 0 76 28t53 68v233q-36 -19 -47 -25.5t-41.5 -24.5t-42 -28t-32 -29t-28.5 -34.5t-15 -37.5t-7 -45z" />
<glyph unicode="&#xab;" horiz-adv-x="932" d="M63 550v108l335 467v-275l-168 -245l168 -248v-274zM460 550v108l337 467v-275l-169 -245l169 -248v-274z" />
<glyph unicode="&#xac;" horiz-adv-x="793" d="M82 753v166h656v-395h-113v229h-543z" />
<glyph unicode="&#xad;" horiz-adv-x="704" d="M118 956v166h471v-166h-471z" />
<glyph unicode="&#xae;" horiz-adv-x="1818" d="M94 830q0 128 28.5 248t92.5 231.5t156.5 194.5t231.5 132.5t307 49.5q121 0 227 -26t187.5 -71.5t148.5 -109.5t113 -138.5t77.5 -160t46 -173t14.5 -177.5t-14.5 -177.5t-45.5 -173t-77 -160.5t-113 -139t-148.5 -109.5t-188 -71.5t-227.5 -26q-168 0 -307 50 t-231.5 133t-156.5 194.5t-92.5 232t-28.5 247.5zM211 829q0 -116 25.5 -223.5t80.5 -204.5t135 -168.5t197.5 -114t259.5 -42.5q140 0 257 42t197 114t135.5 169t81 204.5t25.5 223.5t-25.5 223.5t-81 204.5t-135.5 168t-196.5 113t-257.5 42q-142 0 -259 -42t-197.5 -113 t-135.5 -168t-80.5 -204.5t-25.5 -223.5zM598 294v1086h320q346 0 346 -316q0 -189 -174 -262l196 -508h-199l-173 469h-125v-469h-191zM789 867h68q122 0 166.5 44t44.5 158q0 92 -38 138t-128 46h-113v-386z" />
<glyph unicode="&#xaf;" horiz-adv-x="614" d="M127 1526v132h394v-132h-394z" />
<glyph unicode="&#xb0;" horiz-adv-x="927" d="M119 1331q0 161 92.5 252t251.5 91t252 -91.5t93 -251.5q0 -161 -93 -253t-252 -92q-160 0 -252 92t-92 253zM285 1331q0 -91 47 -145t131 -54t131.5 54.5t47.5 144.5t-47.5 144t-131.5 54t-131 -54t-47 -144z" />
<glyph unicode="&#xb1;" horiz-adv-x="754" d="M116 0v167h525v-167h-525zM116 537v167h179v179h167v-179h179v-167h-179v-179h-167v179h-179z" />
<glyph unicode="&#xb2;" horiz-adv-x="893" d="M174 629v116l300 470q9 15 37 57.5t37.5 59.5t26 52t22 67t5.5 71q0 85 -27 130t-89 45q-37 0 -66.5 -37t-43 -86t-20.5 -85t-7 -47h-162v40q0 349 291 349q143 0 215.5 -80t72.5 -228q0 -68 -17.5 -128.5t-39.5 -99.5t-62 -100q-3 -3 -4 -5t-3 -5l-4 -6l-270 -413h369 v-137h-561z" />
<glyph unicode="&#xb3;" horiz-adv-x="893" d="M176 965v70h183v-75q0 -186 126 -186q66 0 101 46t35 126q0 93 -38 153.5t-108 60.5h-86v140h82q72 0 110.5 62.5t38.5 158.5q0 79 -34.5 120.5t-97.5 41.5q-62 0 -94.5 -41.5t-32.5 -118.5v-99h-184v93q0 144 79 228.5t227 84.5q153 0 231.5 -81t78.5 -239 q0 -99 -48 -174.5t-107 -90.5q65 -25 110.5 -92t45.5 -186q0 -165 -77 -257.5t-227 -92.5q-168 0 -241 87t-73 261z" />
<glyph unicode="&#xb4;" horiz-adv-x="568" d="M114 1253l121 405h219l-229 -405h-111z" />
<glyph unicode="&#xb5;" horiz-adv-x="904" d="M103 1184h219v-894q0 -68 20 -101t74 -33q66 0 153 73v955h219v-1184h-219v117q-100 -96 -206 -122q-23 -4 -38 -1l1 -353h-221z" />
<glyph unicode="&#xb6;" d="M66 1355q0 152 97.5 227.5t276.5 75.5h438v-1854h-157v1750h-158v-1750h-156v1251q-154 0 -247.5 78.5t-93.5 221.5z" />
<glyph unicode="&#xb7;" horiz-adv-x="360" d="M74 659v225h220v-225h-220z" />
<glyph unicode="&#xb8;" horiz-adv-x="518" d="M59 -350q54 -15 105 -15.5t87 18t37 54.5q1 23 -9 41t-23.5 29t-40.5 22t-46 16t-54 14v171h111v-115q92 -15 158 -60t69 -116q3 -62 -29.5 -106.5t-88.5 -64t-128 -19.5t-148 21v110z" />
<glyph unicode="&#xb9;" horiz-adv-x="867" d="M200 1553v121q51 13 84.5 24t85 40t79.5 66h121l2 -1177h-161l-1 970q-3 -4 -91.5 -21.5t-118.5 -22.5z" />
<glyph unicode="&#xba;" horiz-adv-x="908" d="M137 1035v269q0 185 73 282t244 97q164 0 240.5 -101t76.5 -278v-269q0 -177 -76.5 -278.5t-240.5 -101.5q-172 0 -244.5 97t-72.5 283zM319 1059q0 -46 1.5 -75.5t9 -64.5t21 -55t38.5 -34t61 -14t61 14t38 33t20 56t8 64t1 76v221q0 41 -1 63.5t-4.5 55.5t-11.5 51 t-21.5 37t-36 27t-53.5 8q-30 0 -52.5 -8.5t-36.5 -26.5t-22.5 -37.5t-13 -50.5t-5.5 -56t-1 -63v-221z" />
<glyph unicode="&#xbb;" horiz-adv-x="985" d="M117 83v274l187 248l-187 245v275l355 -467v-108zM516 83v274l186 247l-186 246v275l353 -467v-108z" />
<glyph unicode="&#xbc;" horiz-adv-x="1649" d="M119 1374v114q152 76 230 170h58v-860h-166v587zM405 0l540 1658h184l-541 -1658h-183zM957 244v113l314 555h151v-555h119v-113h-119v-244h-167v244h-298zM1089 357h166v324z" />
<glyph unicode="&#xbd;" horiz-adv-x="1649" d="M120 1374v114q153 76 230 170h59v-860h-165v587zM413 0l540 1658h184l-541 -1658h-183zM1038 2v112l188 255q6 8 31 40t34.5 46.5t25.5 43t22 55.5t6 56q0 30 -2 49t-8.5 38.5t-21.5 29t-38 9.5q-24 0 -39 -9.5t-21.5 -30t-8.5 -39.5t-2 -50h-165v15q4 109 65 168t171 59 q112 0 174 -62.5t62 -175.5q0 -85 -45.5 -163.5t-127.5 -172.5q-75 -84 -132 -160h301v-113h-469z" />
<glyph unicode="&#xbe;" horiz-adv-x="1649" d="M96 1064h166q0 -29 2 -47t8 -37.5t20.5 -29t37.5 -9.5q43 0 56 32.5t13 95.5q0 70 -27 99.5t-93 29.5v112q67 0 93 28t26 100q0 30 -1.5 48t-7.5 38t-20 29.5t-37 9.5q-44 0 -57 -31.5t-13 -91.5h-166q0 111 61 173.5t175 62.5q113 0 173 -63t60 -175q0 -87 -46.5 -133.5 t-126.5 -50.5q81 -6 127.5 -51t46.5 -133q0 -114 -61 -177.5t-175 -63.5q-112 0 -173 62t-61 173zM477 0l540 1658h184l-541 -1658h-183zM1013 244v113l315 555h150v-555h120v-113h-120v-244h-166v244h-299zM1146 357h166v324z" />
<glyph unicode="&#xbf;" horiz-adv-x="1041" d="M135 34q0 63 12 120.5t37.5 110t53 96.5t72.5 94t81 87t92 92q26 25 39 38v200h195v-255q-83 -73 -140.5 -132.5t-113.5 -134.5t-84.5 -155.5t-28.5 -166.5q0 -101 56 -165t146 -64q94 0 139.5 55.5t30.5 146.5l-11 74l204 38l13 -70q39 -198 -69 -317t-309 -119 q-196 0 -305.5 112t-109.5 315zM507 1062v225h220v-225h-220z" />
<glyph unicode="&#xc0;" d="M38 0l354 1658h223l354 -1658h-220l-76 418h-337l-79 -418h-219zM221 2201h220l117 -405h-110zM366 583h277l-139 749z" />
<glyph unicode="&#xc1;" d="M38 0l354 1658h223l354 -1658h-220l-76 418h-337l-79 -418h-219zM366 583h277l-139 749zM448 1796l121 405h219l-229 -405h-111z" />
<glyph unicode="&#xc2;" d="M38 0l354 1658h223l354 -1658h-220l-76 418h-337l-79 -418h-219zM215 1796l177 357h222l178 -357h-165l-124 248l-124 -248h-164zM366 583h277l-139 749z" />
<glyph unicode="&#xc3;" d="M38 0l354 1658h223l354 -1658h-220l-76 418h-337l-79 -418h-219zM197 1814q0 225 177 221q54 -1 149.5 -50t115.5 -49q26 -1 36.5 18t10.5 67h124q0 -104 -38 -165t-133 -60q-52 0 -145 50t-120 50q-27 2 -39.5 -18t-12.5 -64h-125zM366 583h277l-139 749z" />
<glyph unicode="&#xc4;" d="M38 0l354 1658h223l354 -1658h-220l-76 418h-337l-79 -418h-219zM217 1796v226h220v-226h-220zM366 583h277l-139 749zM568 1796v226h221v-226h-221z" />
<glyph unicode="&#xc5;" d="M38 0l354 1658h223l354 -1658h-220l-76 418h-337l-79 -418h-219zM275 1888q0 104 62.5 166t165.5 62t166 -62t63 -166t-63 -166.5t-166 -62.5t-165.5 62.5t-62.5 166.5zM366 583h277l-139 749zM386 1888q0 -55 31.5 -86.5t85.5 -31.5t85.5 31.5t31.5 86.5q0 56 -31.5 87 t-85.5 31t-85.5 -31t-31.5 -87z" />
<glyph unicode="&#xc6;" horiz-adv-x="1297" d="M-105 0l699 1658h646v-167h-420v-549h300v-166h-300v-609h420v-167h-641v420h-306l-177 -420h-221zM355 586h244v653z" />
<glyph unicode="&#xc7;" horiz-adv-x="1054" d="M99 533v586q0 105 12.5 187t43.5 153t81 117t127.5 72t180.5 26q224 0 321 -121t97 -356v-132h-219v117q0 38 -0.5 59.5t-2 53.5t-5.5 50t-10.5 42t-16.5 37.5t-25 29t-34 23t-45 12.5t-58 5q-48 0 -84 -10.5t-59 -33t-37.5 -49.5t-21.5 -69.5t-9.5 -82t-2.5 -97.5v-656 q0 -187 47 -260t167 -73q46 0 79.5 10t55 33t34.5 48t19 67.5t7.5 78.5t1.5 94v122h219v-123q0 -95 -12 -170t-41 -140.5t-76 -108.5t-120 -67.5t-169 -24.5q-103 0 -181 28t-127.5 76t-81 119.5t-43.5 150.5t-12 177zM419 -350q54 -15 105 -15.5t87 18t37 54.5q1 23 -9 41 t-23.5 29t-40.5 22t-46 16t-54 14v171h111v-115q92 -15 158 -60t69 -116q3 -62 -29.5 -106.5t-88.5 -64t-128 -19.5t-148 21v110z" />
<glyph unicode="&#xc8;" horiz-adv-x="834" d="M130 0v1658h642v-171h-411v-548h334v-165h-334v-608h416v-166h-647zM171 2201h220l117 -405h-110z" />
<glyph unicode="&#xc9;" horiz-adv-x="834" d="M130 0v1658h642v-171h-411v-548h334v-165h-334v-608h416v-166h-647zM398 1796l121 405h219l-229 -405h-111z" />
<glyph unicode="&#xca;" horiz-adv-x="834" d="M130 0v1658h642v-171h-411v-548h334v-165h-334v-608h416v-166h-647zM165 1796l177 357h222l178 -357h-165l-124 248l-124 -248h-164z" />
<glyph unicode="&#xcb;" horiz-adv-x="834" d="M130 0v1658h642v-171h-411v-548h334v-165h-334v-608h416v-166h-647zM167 1796v226h220v-226h-220zM518 1796v226h221v-226h-221z" />
<glyph unicode="&#xcc;" horiz-adv-x="507" d="M-27 2201h220l117 -405h-110zM141 0v1658h227v-1658h-227z" />
<glyph unicode="&#xcd;" horiz-adv-x="507" d="M141 0v1658h227v-1658h-227zM199 1796l121 405h219l-229 -405h-111z" />
<glyph unicode="&#xce;" horiz-adv-x="507" d="M-34 1796l177 357h222l178 -357h-165l-124 248l-124 -248h-164zM141 0v1658h227v-1658h-227z" />
<glyph unicode="&#xcf;" horiz-adv-x="507" d="M-31 1796v226h220v-226h-220zM141 0v1658h227v-1658h-227zM320 1796v226h221v-226h-221z" />
<glyph unicode="&#xd0;" horiz-adv-x="1061" d="M29 795v132h101v731h360q269 0 379.5 -122t110.5 -384v-610q0 -273 -109.5 -407.5t-363.5 -134.5h-377v795h-101zM361 166h130q53 0 93.5 10.5t67.5 25t45.5 46.5t28 59t14.5 80t6 90.5t1 108.5v539q0 60 -2 101t-8 82t-18 67t-31 49.5t-47 36t-66 19.5t-89 7h-125v-560 h124v-132h-124v-629z" />
<glyph unicode="&#xd1;" horiz-adv-x="1081" d="M130 0v1658h157l471 -1101v1101h193v-1658h-148l-478 1133v-1133h-195zM234 1814q0 225 177 221q54 -1 149.5 -50t115.5 -49q26 -1 36.5 18t10.5 67h124q0 -104 -38 -165t-133 -60q-52 0 -145 50t-120 50q-27 2 -39.5 -18t-12.5 -64h-125z" />
<glyph unicode="&#xd2;" horiz-adv-x="1104" d="M99 520v628q0 259 105.5 392.5t347.5 133.5q241 0 347 -134.5t106 -391.5v-629q0 -259 -106.5 -398t-346.5 -139q-124 0 -212.5 37t-140.5 109t-76 168t-24 224zM270 2201h220l117 -405h-110zM332 470q0 -76 8.5 -127.5t31.5 -94.5t67.5 -64t112.5 -21t112.5 21t67.5 64 t31.5 94.5t8.5 127.5v726q0 75 -8.5 125t-31.5 92t-67.5 61.5t-112.5 19.5t-112.5 -19.5t-67.5 -61.5t-31.5 -92t-8.5 -125v-726z" />
<glyph unicode="&#xd3;" horiz-adv-x="1104" d="M99 520v628q0 259 105.5 392.5t347.5 133.5q241 0 347 -134.5t106 -391.5v-629q0 -259 -106.5 -398t-346.5 -139q-124 0 -212.5 37t-140.5 109t-76 168t-24 224zM332 470q0 -76 8.5 -127.5t31.5 -94.5t67.5 -64t112.5 -21t112.5 21t67.5 64t31.5 94.5t8.5 127.5v726 q0 75 -8.5 125t-31.5 92t-67.5 61.5t-112.5 19.5t-112.5 -19.5t-67.5 -61.5t-31.5 -92t-8.5 -125v-726zM496 1796l121 405h219l-229 -405h-111z" />
<glyph unicode="&#xd4;" horiz-adv-x="1104" d="M99 520v628q0 259 105.5 392.5t347.5 133.5q241 0 347 -134.5t106 -391.5v-629q0 -259 -106.5 -398t-346.5 -139q-124 0 -212.5 37t-140.5 109t-76 168t-24 224zM263 1796l177 357h222l178 -357h-165l-124 248l-124 -248h-164zM332 470q0 -76 8.5 -127.5t31.5 -94.5 t67.5 -64t112.5 -21t112.5 21t67.5 64t31.5 94.5t8.5 127.5v726q0 75 -8.5 125t-31.5 92t-67.5 61.5t-112.5 19.5t-112.5 -19.5t-67.5 -61.5t-31.5 -92t-8.5 -125v-726z" />
<glyph unicode="&#xd5;" horiz-adv-x="1104" d="M99 520v628q0 259 105.5 392.5t347.5 133.5q241 0 347 -134.5t106 -391.5v-629q0 -259 -106.5 -398t-346.5 -139q-124 0 -212.5 37t-140.5 109t-76 168t-24 224zM245 1814q0 225 177 221q54 -1 149.5 -50t115.5 -49q26 -1 36.5 18t10.5 67h124q0 -104 -38 -165t-133 -60 q-52 0 -145 50t-120 50q-27 2 -39.5 -18t-12.5 -64h-125zM332 470q0 -76 8.5 -127.5t31.5 -94.5t67.5 -64t112.5 -21t112.5 21t67.5 64t31.5 94.5t8.5 127.5v726q0 75 -8.5 125t-31.5 92t-67.5 61.5t-112.5 19.5t-112.5 -19.5t-67.5 -61.5t-31.5 -92t-8.5 -125v-726z" />
<glyph unicode="&#xd6;" horiz-adv-x="1104" d="M99 520v628q0 259 105.5 392.5t347.5 133.5q241 0 347 -134.5t106 -391.5v-629q0 -259 -106.5 -398t-346.5 -139q-124 0 -212.5 37t-140.5 109t-76 168t-24 224zM266 1796v226h220v-226h-220zM332 470q0 -76 8.5 -127.5t31.5 -94.5t67.5 -64t112.5 -21t112.5 21t67.5 64 t31.5 94.5t8.5 127.5v726q0 75 -8.5 125t-31.5 92t-67.5 61.5t-112.5 19.5t-112.5 -19.5t-67.5 -61.5t-31.5 -92t-8.5 -125v-726zM617 1796v226h221v-226h-221z" />
<glyph unicode="&#xd7;" horiz-adv-x="784" d="M100 631l182 182l-182 182l110 111l182 -182l182 182l110 -111l-183 -182l183 -182l-110 -110l-182 182l-182 -182z" />
<glyph unicode="&#xd8;" horiz-adv-x="1106" d="M99 520v628q0 259 105.5 392.5t347.5 133.5q97 0 172 -22l40 151l81 -21l-43 -161q58 -31 97 -81q106 -134 106 -392v-629q0 -259 -106.5 -398t-346.5 -139q-104 0 -182 26l-43 -159l-79 25l45 168q-57 34 -94 86q-52 72 -76 168t-24 224zM332 470q0 -76 8 -128 q5 -32 17 -61l318 1189q-5 2 -11 4q-44 20 -112 20t-112.5 -19.5t-67.5 -61.5t-31.5 -92t-8.5 -125v-726zM420 195q10 -6 20 -11q44 -21 112 -21t112.5 21t67.5 64t31.5 94.5t8.5 127.5v726q0 75 -8 125q-7 39 -23 74z" />
<glyph unicode="&#xd9;" horiz-adv-x="1113" d="M115 559v1099h220v-1110q0 -71 4 -123t18 -104.5t37.5 -84.5t64.5 -52.5t98 -20.5t97.5 20.5t64 53t37.5 84.5t18 104t4 123v1110h220v-1099q0 -111 -11 -194.5t-40.5 -158t-78.5 -122t-127 -75t-184 -27.5t-184.5 27.5t-127.5 75t-78.5 122t-40.5 158t-11 194.5z M275 2201h220l117 -405h-110z" />
<glyph unicode="&#xda;" horiz-adv-x="1113" d="M115 559v1099h220v-1110q0 -71 4 -123t18 -104.5t37.5 -84.5t64.5 -52.5t98 -20.5t97.5 20.5t64 53t37.5 84.5t18 104t4 123v1110h220v-1099q0 -111 -11 -194.5t-40.5 -158t-78.5 -122t-127 -75t-184 -27.5t-184.5 27.5t-127.5 75t-78.5 122t-40.5 158t-11 194.5z M501 1796l121 405h219l-229 -405h-111z" />
<glyph unicode="&#xdb;" horiz-adv-x="1113" d="M115 559v1099h220v-1110q0 -71 4 -123t18 -104.5t37.5 -84.5t64.5 -52.5t98 -20.5t97.5 20.5t64 53t37.5 84.5t18 104t4 123v1110h220v-1099q0 -111 -11 -194.5t-40.5 -158t-78.5 -122t-127 -75t-184 -27.5t-184.5 27.5t-127.5 75t-78.5 122t-40.5 158t-11 194.5z M268 1796l177 357h222l178 -357h-165l-124 248l-124 -248h-164z" />
<glyph unicode="&#xdc;" horiz-adv-x="1113" d="M115 559v1099h220v-1110q0 -71 4 -123t18 -104.5t37.5 -84.5t64.5 -52.5t98 -20.5t97.5 20.5t64 53t37.5 84.5t18 104t4 123v1110h220v-1099q0 -111 -11 -194.5t-40.5 -158t-78.5 -122t-127 -75t-184 -27.5t-184.5 27.5t-127.5 75t-78.5 122t-40.5 158t-11 194.5z M271 1796v226h220v-226h-220zM622 1796v226h221v-226h-221z" />
<glyph unicode="&#xdd;" horiz-adv-x="986" d="M25 1658h215l253 -799l250 799h218l-357 -1073v-585h-221v585zM438 1796l121 405h219l-229 -405h-111z" />
<glyph unicode="&#xde;" horiz-adv-x="1031" d="M130 0v1658h231v-217h239q201 0 298 -127t97 -354q0 -482 -433 -482h-201v-478h-231zM361 664h143q142 0 204 64t62 233q0 159 -54.5 224t-184.5 65h-170v-586z" />
<glyph unicode="&#xdf;" horiz-adv-x="1045" d="M114 0v1253q0 199 89.5 311.5t262.5 112.5q201 0 303.5 -109.5t102.5 -316.5q0 -143 -50 -232t-152 -142q126 -33 195 -139.5t69 -261.5q0 -243 -116.5 -368.5t-367.5 -125.5v181q81 0 134.5 20t82 62.5t39 96t10.5 133.5q0 136 -62.5 215t-187.5 79l1 181q53 0 92 25.5 t59.5 69.5t30 95t9.5 111q0 58 -7 99.5t-24.5 76.5t-51 53t-82.5 18q-91 0 -125.5 -60t-34.5 -182v-1256h-219z" />
<glyph unicode="&#xe0;" horiz-adv-x="872" d="M85 258q0 84 27.5 152.5t58.5 110.5t107.5 87.5t118.5 64.5t147 62q6 3 9 4v85q0 115 -23.5 163.5t-95.5 48.5q-124 0 -124 -168v-59l-217 8q0 18 2 44q10 177 99 258t255 81q171 0 247 -93.5t76 -281.5v-541q0 -134 20 -284h-200q-21 99 -29 175q-25 -80 -85.5 -136 t-154.5 -56q-101 0 -169.5 83.5t-68.5 191.5zM157 1727h220l117 -405h-110zM305 325q0 -72 27 -112t78 -40q42 0 82.5 33t60.5 65v335q-115 -65 -152 -96q-96 -78 -96 -185z" />
<glyph unicode="&#xe1;" horiz-adv-x="872" d="M85 258q0 84 27.5 152.5t58.5 110.5t107.5 87.5t118.5 64.5t147 62q6 3 9 4v85q0 115 -23.5 163.5t-95.5 48.5q-124 0 -124 -168v-59l-217 8q0 18 2 44q10 177 99 258t255 81q171 0 247 -93.5t76 -281.5v-541q0 -134 20 -284h-200q-21 99 -29 175q-25 -80 -85.5 -136 t-154.5 -56q-101 0 -169.5 83.5t-68.5 191.5zM305 325q0 -72 27 -112t78 -40q42 0 82.5 33t60.5 65v335q-115 -65 -152 -96q-96 -78 -96 -185zM383 1322l121 405h219l-229 -405h-111z" />
<glyph unicode="&#xe2;" horiz-adv-x="872" d="M85 258q0 84 27.5 152.5t58.5 110.5t107.5 87.5t118.5 64.5t147 62q6 3 9 4v85q0 115 -23.5 163.5t-95.5 48.5q-124 0 -124 -168v-59l-217 8q0 18 2 44q10 177 99 258t255 81q171 0 247 -93.5t76 -281.5v-541q0 -134 20 -284h-200q-21 99 -29 175q-25 -80 -85.5 -136 t-154.5 -56q-101 0 -169.5 83.5t-68.5 191.5zM150 1322l177 357h222l178 -357h-165l-124 248l-124 -248h-164zM305 325q0 -72 27 -112t78 -40q42 0 82.5 33t60.5 65v335q-115 -65 -152 -96q-96 -78 -96 -185z" />
<glyph unicode="&#xe3;" horiz-adv-x="872" d="M85 258q0 84 27.5 152.5t58.5 110.5t107.5 87.5t118.5 64.5t147 62q6 3 9 4v85q0 115 -23.5 163.5t-95.5 48.5q-124 0 -124 -168v-59l-217 8q0 18 2 44q10 177 99 258t255 81q171 0 247 -93.5t76 -281.5v-541q0 -134 20 -284h-200q-21 99 -29 175q-25 -80 -85.5 -136 t-154.5 -56q-101 0 -169.5 83.5t-68.5 191.5zM132 1340q0 225 177 221q54 -1 149.5 -50t115.5 -49q26 -1 36.5 18t10.5 67h124q0 -104 -38 -165t-133 -60q-52 0 -145 50t-120 50q-27 2 -39.5 -18t-12.5 -64h-125zM305 325q0 -72 27 -112t78 -40q42 0 82.5 33t60.5 65v335 q-115 -65 -152 -96q-96 -78 -96 -185z" />
<glyph unicode="&#xe4;" horiz-adv-x="872" d="M85 258q0 84 27.5 152.5t58.5 110.5t107.5 87.5t118.5 64.5t147 62q6 3 9 4v85q0 115 -23.5 163.5t-95.5 48.5q-124 0 -124 -168v-59l-217 8q0 18 2 44q10 177 99 258t255 81q171 0 247 -93.5t76 -281.5v-541q0 -134 20 -284h-200q-21 99 -29 175q-25 -80 -85.5 -136 t-154.5 -56q-101 0 -169.5 83.5t-68.5 191.5zM153 1322v226h220v-226h-220zM305 325q0 -72 27 -112t78 -40q42 0 82.5 33t60.5 65v335q-115 -65 -152 -96q-96 -78 -96 -185zM504 1322v226h221v-226h-221z" />
<glyph unicode="&#xe5;" horiz-adv-x="872" d="M85 258q0 84 27.5 152.5t58.5 110.5t107.5 87.5t118.5 64.5t147 62q6 3 9 4v85q0 115 -23.5 163.5t-95.5 48.5q-124 0 -124 -168v-59l-217 8q0 18 2 44q10 177 99 258t255 81q171 0 247 -93.5t76 -281.5v-541q0 -134 20 -284h-200q-21 99 -29 175q-25 -80 -85.5 -136 t-154.5 -56q-101 0 -169.5 83.5t-68.5 191.5zM210 1551q0 104 62.5 166t165.5 62t166 -62t63 -166t-63 -166.5t-166 -62.5t-165.5 62.5t-62.5 166.5zM305 325q0 -72 27 -112t78 -40q42 0 82.5 33t60.5 65v335q-115 -65 -152 -96q-96 -78 -96 -185zM321 1551 q0 -55 31.5 -86.5t85.5 -31.5t85.5 31.5t31.5 86.5q0 56 -31.5 87t-85.5 31t-85.5 -31t-31.5 -87z" />
<glyph unicode="&#xe6;" horiz-adv-x="1330" d="M85 258q0 153 81 239.5t234 128.5l159 43v155q0 103 -26.5 155.5t-97.5 52.5q-129 0 -129 -195h-218q2 168 93 265.5t254 97.5q88 0 150.5 -38.5t83.5 -108.5q32 67 94 107t145 40q160 0 243 -95t83 -263q0 -41 -11.5 -73.5t-36.5 -56t-50 -40t-66.5 -29t-70.5 -19.5 t-76 -16l-144 -30v-55q0 -172 12 -235q27 -130 116 -131q66 0 91.5 54t25.5 150v51h219v-50q0 -182 -82.5 -280.5t-254.5 -98.5q-108 0 -179 65.5t-86 175.5q-105 -257 -320 -241q-102 7 -169 87.5t-67 187.5zM303 306q1 -70 31.5 -111t75.5 -41q62 0 105.5 73t43.5 206v110 q-43 -12 -94 -32q-80 -33 -121 -81t-41 -124zM779 697l112 25q77 16 109.5 43t32.5 97q0 72 -30 116t-95 44q-70 0 -99.5 -54t-29.5 -154v-117z" />
<glyph unicode="&#xe7;" horiz-adv-x="841" d="M89 454v274q0 119 14 200t51 145.5t106 95.5t174 31q95 0 159 -23t99.5 -72t50 -115t14.5 -162v-71h-198v72q0 117 -26 163.5t-96 46.5q-80 0 -104.5 -55.5t-24.5 -210.5v-373q0 -150 27.5 -202.5t102.5 -52.5q32 0 54.5 10.5t35.5 27t20 44.5t9 55.5t2 68.5v96h198v-82 q0 -95 -15 -162t-51 -118.5t-99.5 -76.5t-157.5 -25q-86 0 -147.5 22.5t-99.5 61t-60 100t-30 128.5t-8 159zM319 -350q54 -15 105 -15.5t87 18t37 54.5q1 23 -9 41t-23.5 29t-40.5 22t-46 16t-54 14v171h111v-115q92 -15 158 -60t69 -116q3 -62 -29.5 -106.5t-88.5 -64 t-128 -19.5t-148 21v110z" />
<glyph unicode="&#xe8;" horiz-adv-x="862" d="M89 456v271q0 123 16.5 207.5t55.5 146t107.5 90.5t169.5 29q63 0 112 -12t84.5 -33t60.5 -56.5t40.5 -75t24.5 -96t12 -112.5t3 -131l-1 -96h-466v-158v-13q0 -50 0.5 -74t4 -62.5t11.5 -57.5t22 -40t36.5 -29.5t54.5 -8.5q71 0 96.5 48.5t25.5 146.5v72h214v-46 q0 -383 -334 -383q-104 0 -173 29.5t-107.5 92t-54 146t-15.5 205.5zM150 1727h220l117 -405h-110zM308 707h251v107q0 47 -2.5 79t-10 62t-20.5 47t-35.5 27t-54.5 10q-78 0 -103 -56t-25 -212v-64z" />
<glyph unicode="&#xe9;" horiz-adv-x="862" d="M89 456v271q0 123 16.5 207.5t55.5 146t107.5 90.5t169.5 29q63 0 112 -12t84.5 -33t60.5 -56.5t40.5 -75t24.5 -96t12 -112.5t3 -131l-1 -96h-466v-158v-13q0 -50 0.5 -74t4 -62.5t11.5 -57.5t22 -40t36.5 -29.5t54.5 -8.5q71 0 96.5 48.5t25.5 146.5v72h214v-46 q0 -383 -334 -383q-104 0 -173 29.5t-107.5 92t-54 146t-15.5 205.5zM308 707h251v107q0 47 -2.5 79t-10 62t-20.5 47t-35.5 27t-54.5 10q-78 0 -103 -56t-25 -212v-64zM376 1322l121 405h219l-229 -405h-111z" />
<glyph unicode="&#xea;" horiz-adv-x="862" d="M89 456v271q0 123 16.5 207.5t55.5 146t107.5 90.5t169.5 29q63 0 112 -12t84.5 -33t60.5 -56.5t40.5 -75t24.5 -96t12 -112.5t3 -131l-1 -96h-466v-158v-13q0 -50 0.5 -74t4 -62.5t11.5 -57.5t22 -40t36.5 -29.5t54.5 -8.5q71 0 96.5 48.5t25.5 146.5v72h214v-46 q0 -383 -334 -383q-104 0 -173 29.5t-107.5 92t-54 146t-15.5 205.5zM143 1322l177 357h222l178 -357h-165l-124 248l-124 -248h-164zM308 707h251v107q0 47 -2.5 79t-10 62t-20.5 47t-35.5 27t-54.5 10q-78 0 -103 -56t-25 -212v-64z" />
<glyph unicode="&#xeb;" horiz-adv-x="862" d="M89 456v271q0 123 16.5 207.5t55.5 146t107.5 90.5t169.5 29q63 0 112 -12t84.5 -33t60.5 -56.5t40.5 -75t24.5 -96t12 -112.5t3 -131l-1 -96h-466v-158v-13q0 -50 0.5 -74t4 -62.5t11.5 -57.5t22 -40t36.5 -29.5t54.5 -8.5q71 0 96.5 48.5t25.5 146.5v72h214v-46 q0 -383 -334 -383q-104 0 -173 29.5t-107.5 92t-54 146t-15.5 205.5zM146 1322v226h220v-226h-220zM308 707h251v107q0 47 -2.5 79t-10 62t-20.5 47t-35.5 27t-54.5 10q-78 0 -103 -56t-25 -212v-64zM497 1322v226h221v-226h-221z" />
<glyph unicode="&#xec;" horiz-adv-x="459" d="M-47 1727h220l117 -405h-110zM125 0v1184h219v-1184h-219z" />
<glyph unicode="&#xed;" horiz-adv-x="459" d="M125 0v1184h219v-1184h-219zM179 1322l121 405h219l-229 -405h-111z" />
<glyph unicode="&#xee;" horiz-adv-x="459" d="M-54 1322l177 357h222l178 -357h-165l-124 248l-124 -248h-164zM125 0v1184h219v-1184h-219z" />
<glyph unicode="&#xef;" horiz-adv-x="459" d="M-51 1322v226h220v-226h-220zM125 0v1184h219v-1184h-219zM300 1322v226h221v-226h-221z" />
<glyph unicode="&#xf0;" horiz-adv-x="965" d="M106 460v138q0 80 5 144.5t18 128.5t36.5 111t58.5 83.5t86.5 55.5t117.5 19q117 0 199 -74q-18 191 -72 275l-244 -76v112l185 52q-45 52 -121.5 77.5t-216.5 27.5l10 143q196 -1 313.5 -47t185.5 -145l239 70v-112l-183 -49q49 -102 88.5 -282t39.5 -339v-287 q0 -242 -91 -373t-296 -131q-89 0 -153 22t-103.5 60t-62.5 100.5t-31 131.5t-8 164zM323.5 397q0.5 -34 2 -57t6 -50.5t11.5 -45.5t18.5 -36.5t26.5 -29t36 -17t47 -6.5q43 0 73 14.5t47 37.5t26.5 63t12.5 80t3 99q0 437 -3 443l-7 7l-9 9t-10.5 10t-13.5 10.5t-15.5 9.5 t-19 9.5t-21 7t-24.5 5t-27 1.5q-89 0 -123.5 -89t-34.5 -290q0 -25 -0.5 -63t-1 -63t0 -59z" />
<glyph unicode="&#xf1;" horiz-adv-x="900" d="M111 0v1184h219v-117q140 133 289 133q50 0 86.5 -21t55.5 -57.5t27 -76.5t8 -87v-958h-219v894q0 68 -20 101t-74 33q-66 0 -153 -73v-955h-219zM147 1340q0 225 177 221q54 -1 149.5 -50t115.5 -49q26 -1 36.5 18t10.5 67h124q0 -104 -38 -165t-133 -60q-52 0 -145 50 t-120 50q-27 2 -39.5 -18t-12.5 -64h-125z" />
<glyph unicode="&#xf2;" horiz-adv-x="868" d="M89 420v343q0 104 17.5 181.5t56.5 136.5t106.5 89t164.5 30q187 0 266 -112t79 -325v-343q0 -213 -79 -325t-266 -112q-97 0 -164.5 30t-106.5 89t-56.5 136.5t-17.5 181.5zM152 1727h220l117 -405h-110zM308 406q0 -38 0.5 -57t2.5 -52t6.5 -50.5t14 -40t22.5 -34 t33.5 -19.5t46.5 -8q30 0 52.5 9t35.5 30t21 40.5t11.5 56t4 59t0.5 66.5v371q0 38 -0.5 57t-2.5 52t-6.5 50.5t-13.5 40.5t-22.5 34t-33.5 19.5t-46 8.5t-46.5 -8.5t-33.5 -19.5t-22.5 -34t-14 -40.5t-6.5 -50.5t-2.5 -52t-0.5 -57v-371z" />
<glyph unicode="&#xf3;" horiz-adv-x="868" d="M89 420v343q0 104 17.5 181.5t56.5 136.5t106.5 89t164.5 30q187 0 266 -112t79 -325v-343q0 -213 -79 -325t-266 -112q-97 0 -164.5 30t-106.5 89t-56.5 136.5t-17.5 181.5zM308 406q0 -38 0.5 -57t2.5 -52t6.5 -50.5t14 -40t22.5 -34t33.5 -19.5t46.5 -8q30 0 52.5 9 t35.5 30t21 40.5t11.5 56t4 59t0.5 66.5v371q0 38 -0.5 57t-2.5 52t-6.5 50.5t-13.5 40.5t-22.5 34t-33.5 19.5t-46 8.5t-46.5 -8.5t-33.5 -19.5t-22.5 -34t-14 -40.5t-6.5 -50.5t-2.5 -52t-0.5 -57v-371zM378 1322l121 405h219l-229 -405h-111z" />
<glyph unicode="&#xf4;" horiz-adv-x="868" d="M89 420v343q0 104 17.5 181.5t56.5 136.5t106.5 89t164.5 30q187 0 266 -112t79 -325v-343q0 -213 -79 -325t-266 -112q-97 0 -164.5 30t-106.5 89t-56.5 136.5t-17.5 181.5zM145 1322l177 357h222l178 -357h-165l-124 248l-124 -248h-164zM308 406q0 -38 0.5 -57 t2.5 -52t6.5 -50.5t14 -40t22.5 -34t33.5 -19.5t46.5 -8q30 0 52.5 9t35.5 30t21 40.5t11.5 56t4 59t0.5 66.5v371q0 38 -0.5 57t-2.5 52t-6.5 50.5t-13.5 40.5t-22.5 34t-33.5 19.5t-46 8.5t-46.5 -8.5t-33.5 -19.5t-22.5 -34t-14 -40.5t-6.5 -50.5t-2.5 -52t-0.5 -57v-371 z" />
<glyph unicode="&#xf5;" horiz-adv-x="868" d="M89 420v343q0 104 17.5 181.5t56.5 136.5t106.5 89t164.5 30q187 0 266 -112t79 -325v-343q0 -213 -79 -325t-266 -112q-97 0 -164.5 30t-106.5 89t-56.5 136.5t-17.5 181.5zM127 1340q0 225 177 221q54 -1 149.5 -50t115.5 -49q26 -1 36.5 18t10.5 67h124 q0 -104 -38 -165t-133 -60q-52 0 -145 50t-120 50q-27 2 -39.5 -18t-12.5 -64h-125zM308 406q0 -38 0.5 -57t2.5 -52t6.5 -50.5t14 -40t22.5 -34t33.5 -19.5t46.5 -8q30 0 52.5 9t35.5 30t21 40.5t11.5 56t4 59t0.5 66.5v371q0 38 -0.5 57t-2.5 52t-6.5 50.5t-13.5 40.5 t-22.5 34t-33.5 19.5t-46 8.5t-46.5 -8.5t-33.5 -19.5t-22.5 -34t-14 -40.5t-6.5 -50.5t-2.5 -52t-0.5 -57v-371z" />
<glyph unicode="&#xf6;" horiz-adv-x="868" d="M89 420v343q0 104 17.5 181.5t56.5 136.5t106.5 89t164.5 30q187 0 266 -112t79 -325v-343q0 -213 -79 -325t-266 -112q-97 0 -164.5 30t-106.5 89t-56.5 136.5t-17.5 181.5zM148 1322v226h220v-226h-220zM308 406q0 -38 0.5 -57t2.5 -52t6.5 -50.5t14 -40t22.5 -34 t33.5 -19.5t46.5 -8q30 0 52.5 9t35.5 30t21 40.5t11.5 56t4 59t0.5 66.5v371q0 38 -0.5 57t-2.5 52t-6.5 50.5t-13.5 40.5t-22.5 34t-33.5 19.5t-46 8.5t-46.5 -8.5t-33.5 -19.5t-22.5 -34t-14 -40.5t-6.5 -50.5t-2.5 -52t-0.5 -57v-371zM499 1322v226h221v-226h-221z" />
<glyph unicode="&#xf7;" horiz-adv-x="709" d="M38 762v159h633v-159h-633zM266 353v227h174v-227h-174zM266 1079v227h174v-227h-174z" />
<glyph unicode="&#xf8;" horiz-adv-x="868" d="M89 420v343q0 104 17.5 181.5t56.5 136.5t106.5 89t164.5 30q101 0 171 -33l71 201l76 -25l-80 -222q16 -15 28 -33q79 -112 79 -325v-343q0 -213 -79 -325t-266 -112q-96 0 -163 29l-75 -207l-65 22l79 223q-27 22 -47 52q-39 59 -56.5 136.5t-17.5 181.5zM308 349 q0 -8 1 -18l228 644q0 1 -1 2q-9 23 -22.5 34t-33.5 19.5t-46 8.5t-46.5 -8.5t-33.5 -19.5t-22.5 -34t-14 -40.5t-6.5 -50.5t-2.5 -52t-0.5 -57v-371v-57zM337 195q8 -15 17 -23q13 -12 33.5 -19.5t46.5 -7.5q30 0 52.5 9t35.5 30t21 40.5t11.5 56t4 59t0.5 66.5v371v32z " />
<glyph unicode="&#xf9;" horiz-adv-x="901" d="M103 226v958h219v-894q0 -68 20 -101t74 -33q66 0 153 73v955h219v-1184h-219v117q-140 -133 -289 -133q-50 0 -86.5 21t-55.5 57.5t-27 76.5t-8 87zM163 1727h220l117 -405h-110z" />
<glyph unicode="&#xfa;" horiz-adv-x="901" d="M103 226v958h219v-894q0 -68 20 -101t74 -33q66 0 153 73v955h219v-1184h-219v117q-140 -133 -289 -133q-50 0 -86.5 21t-55.5 57.5t-27 76.5t-8 87zM390 1322l121 405h219l-229 -405h-111z" />
<glyph unicode="&#xfb;" horiz-adv-x="901" d="M103 226v958h219v-894q0 -68 20 -101t74 -33q66 0 153 73v955h219v-1184h-219v117q-140 -133 -289 -133q-50 0 -86.5 21t-55.5 57.5t-27 76.5t-8 87zM157 1322l177 357h222l178 -357h-165l-124 248l-124 -248h-164z" />
<glyph unicode="&#xfc;" horiz-adv-x="901" d="M103 226v958h219v-894q0 -68 20 -101t74 -33q66 0 153 73v955h219v-1184h-219v117q-140 -133 -289 -133q-50 0 -86.5 21t-55.5 57.5t-27 76.5t-8 87zM159 1322v226h220v-226h-220zM510 1322v226h221v-226h-221z" />
<glyph unicode="&#xfd;" horiz-adv-x="802" d="M24 1184h222l159 -885l154 885h222l-284 -1249q-28 -126 -119.5 -178.5t-258.5 -52.5h-27v166q146 0 186.5 28t21.5 115q-29 124 -38 163q-35 150 -118.5 504t-119.5 504zM347 1322l121 405h219l-229 -405h-111z" />
<glyph unicode="&#xfe;" horiz-adv-x="915" d="M113 -390v2048h219v-569q94 111 225 111q59 0 105.5 -22.5t74.5 -62t47.5 -84t28 -99t11.5 -94.5t3 -83v-286q0 -486 -294 -486q-106 0 -201 105v-478h-219zM332 208q72 -52 157 -52q27 0 47.5 10.5t33 32.5t20.5 47t12 64.5t5 73t1 84.5v287q0 50 -2.5 86t-10 73.5 t-21 61t-37.5 38t-57 14.5q-74 0 -148 -61v-759z" />
<glyph unicode="&#xff;" horiz-adv-x="802" d="M24 1184h222l159 -885l154 885h222l-284 -1249q-28 -126 -119.5 -178.5t-258.5 -52.5h-27v166q146 0 186.5 28t21.5 115q-29 124 -38 163q-35 150 -118.5 504t-119.5 504zM117 1322v226h220v-226h-220zM468 1322v226h221v-226h-221z" />
<glyph unicode="&#x152;" horiz-adv-x="1399" d="M99 505v614q0 272 110 405.5t364 133.5h766v-172h-404v-546h329v-165h-329v-609h408v-166h-754q-137 0 -232 31t-151.5 96t-81.5 156.5t-25 221.5zM332 530q0 -70 3 -115t12 -89.5t26.5 -70t46.5 -46t72 -29t102 -8.5h110v1320h-115q-37 0 -68 -4t-55 -14t-43 -20.5 t-33 -31t-23.5 -37.5t-16 -47t-10.5 -53t-5.5 -63t-2 -69t-0.5 -77v-546z" />
<glyph unicode="&#x153;" horiz-adv-x="1402" d="M116 416v351q0 212 79.5 322.5t267.5 110.5q172 0 239 -140q30 67 94 103.5t153 36.5q83 0 143 -22t97.5 -61.5t59.5 -104.5t30 -139t8 -177l-1 -100h-474v-73v-19v-59.5t1.5 -57t5 -57.5t9 -50.5t15.5 -46.5t23 -34.5t32 -26t42 -9.5q69 -4 98.5 34t29.5 135v80h219v-79 q0 -183 -84.5 -269.5t-262.5 -80.5q-176 6 -238 143q-63 -143 -239 -143q-188 0 -267.5 110.5t-79.5 322.5zM336 416q0 -42 1 -65.5t4 -58t11.5 -53.5t22 -39t36 -28.5t52.5 -8.5q26 0 46.5 7.5t34 19t23 32t14.5 38.5t7.5 48.5t3 51.5t0.5 56v351q0 42 -1 66t-4.5 58.5 t-12 54t-22 39t-36 28.5t-53.5 9q-30 0 -52.5 -8.5t-36 -28.5t-22 -39.5t-11.5 -54t-4 -58.5t-1 -66v-351zM812 707h256v36q0 40 -1 67.5t-5 63t-12.5 59t-22 45.5t-35.5 33t-51 11q-33 0 -57.5 -16t-38 -41t-21 -64t-10 -74.5t-2.5 -82.5v-37z" />
<glyph unicode="&#x178;" horiz-adv-x="986" d="M25 1658h215l253 -799l250 799h218l-357 -1073v-585h-221v585zM207 1796v226h220v-226h-220zM558 1796v226h221v-226h-221z" />
<glyph unicode="&#x2c6;" horiz-adv-x="702" d="M63 1274l177 384h222l178 -384h-165l-124 275l-124 -275h-164z" />
<glyph unicode="&#x2dc;" horiz-adv-x="868" d="M127 1451q0 225 177 221q54 -1 149.5 -50t115.5 -49q26 -1 36.5 18t10.5 67h124q0 -104 -38 -165t-133 -60q-52 0 -145 50t-120 50q-27 2 -39.5 -18t-12.5 -64h-125z" />
<glyph unicode="&#x2000;" horiz-adv-x="1100" />
<glyph unicode="&#x2001;" horiz-adv-x="2201" />
<glyph unicode="&#x2002;" horiz-adv-x="1100" />
<glyph unicode="&#x2003;" horiz-adv-x="2201" />
<glyph unicode="&#x2004;" horiz-adv-x="733" />
<glyph unicode="&#x2005;" horiz-adv-x="550" />
<glyph unicode="&#x2006;" horiz-adv-x="366" />
<glyph unicode="&#x2007;" horiz-adv-x="366" />
<glyph unicode="&#x2008;" horiz-adv-x="275" />
<glyph unicode="&#x2009;" horiz-adv-x="440" />
<glyph unicode="&#x200a;" horiz-adv-x="122" />
<glyph unicode="&#x2010;" horiz-adv-x="658" d="M100 535v166h458v-166h-458z" />
<glyph unicode="&#x2011;" horiz-adv-x="658" d="M100 535v166h458v-166h-458z" />
<glyph unicode="&#x2012;" horiz-adv-x="658" d="M100 535v166h458v-166h-458z" />
<glyph unicode="&#x2013;" horiz-adv-x="1012" d="M17 417v167h981v-167h-981z" />
<glyph unicode="&#x2014;" horiz-adv-x="1976" d="M17 550v160h1945v-160h-1945z" />
<glyph unicode="&#x2018;" horiz-adv-x="779" d="M103 1186v198q0 166 47 252t156 91l38 -81q-62 -5 -86 -58t-24 -172h109v-230h-240z" />
<glyph unicode="&#x2019;" horiz-adv-x="426" d="M121 1198q62 5 86 58t24 172h-109v230h240v-198q0 -166 -47 -252t-156 -91z" />
<glyph unicode="&#x201a;" horiz-adv-x="572" d="M206 -188q62 4 86 57t24 173h-108v229h239v-198q0 -166 -46.5 -252t-156.5 -90z" />
<glyph unicode="&#x201c;" horiz-adv-x="931" d="M107 1186v198q0 166 47 252t156 91l38 -81q-62 -5 -86 -58t-24 -172h108v-230h-239zM525 1186v198q0 166 47 252t156 91l38 -81q-62 -5 -86 -58t-24 -172h108v-230h-239z" />
<glyph unicode="&#x201d;" horiz-adv-x="970" d="M208 1197q62 5 86 58t24 172h-108v230h239v-198q0 -167 -46.5 -252.5t-156.5 -89.5zM574 1197q62 5 85.5 58t23.5 172h-108v230h239v-198q0 -167 -46.5 -252.5t-155.5 -89.5z" />
<glyph unicode="&#x201e;" horiz-adv-x="941" d="M194 -187q62 5 86 57.5t24 172.5h-109v230h240v-198q0 -166 -47 -252.5t-156 -90.5zM612 -187q62 5 86 57.5t24 172.5h-108v230h239v-198q0 -167 -46.5 -253t-156.5 -90z" />
<glyph unicode="&#x2022;" horiz-adv-x="744" d="M139 798q0 111 61 176t171 65t172 -65.5t62 -175.5q0 -111 -62 -176t-172 -65q-109 0 -170.5 65.5t-61.5 175.5z" />
<glyph unicode="&#x2026;" horiz-adv-x="1133" d="M78 0v243h221v-243h-221zM458 0v243h221v-243h-221zM838 0v243h221v-243h-221z" />
<glyph unicode="&#x202f;" horiz-adv-x="440" />
<glyph unicode="&#x2039;" horiz-adv-x="564" d="M89 550v108l406 467v-275l-240 -245l240 -248v-274z" />
<glyph unicode="&#x203a;" horiz-adv-x="599" d="M122 190v274l240 248l-240 245v275l406 -467v-108z" />
<glyph unicode="&#x205f;" horiz-adv-x="550" />
<glyph unicode="&#x20ac;" horiz-adv-x="1018" d="M-21 617v120h120v206h-120v121h120v55q0 105 12.5 187t43.5 153t81 117t127.5 72t180.5 26q224 0 321 -121t97 -356v-87h-219v72q0 38 -0.5 59.5t-2 53.5t-5.5 50t-10.5 42t-16.5 37.5t-25 29t-34 23t-45 12.5t-58 5q-48 0 -84 -10.5t-59 -33t-37.5 -49.5t-21.5 -69.5 t-9.5 -82t-2.5 -97.5v-88h205v-121h-205v-206h205v-120h-205v-121q0 -187 47 -260t167 -73q46 0 79.5 10t55 33t34.5 48t19 67.5t7.5 78.5t1.5 94v77h219v-78q0 -95 -12 -170t-41 -140.5t-76 -108.5t-120 -67.5t-169 -24.5q-103 0 -181 28t-127.5 76t-81 119.5t-43.5 150.5 t-12 177v84h-120z" />
<glyph unicode="&#x2122;" horiz-adv-x="1505" d="M113 1522v136h484v-136h-155v-767h-163v767h-166zM699 755v903h150l195 -628l212 628h137v-903h-128v558l-181 -558h-69l-188 556v-556h-128z" />
<glyph unicode="&#x25fc;" horiz-adv-x="1185" d="M0 0v1185h1185v-1185h-1185z" />
<glyph unicode="&#xfb01;" horiz-adv-x="1006" d="M38 1021v163h143v61q0 184 62 268.5t218 84.5q55 0 118 -9v-164q-46 8 -76 8q-62 0 -83 -33t-21 -117v-99h484v-1184h-219v1021h-265v-1021h-218v1021h-143zM684 1359v230h200v-230h-200z" />
<glyph unicode="&#xfb02;" horiz-adv-x="1054" d="M38 1021v163h143v61q0 37 0.5 60.5t4.5 59.5t11 60.5t20 56t32 52t47.5 42.5t65.5 35t87 21t110 8q151 0 377 -51v-1589h-220v1468q-73 9 -124 9q-40 0 -70.5 -6.5t-51 -15t-34.5 -27t-21 -33t-11 -43t-4.5 -47.5t-0.5 -55v-66h181v-163h-181v-1021h-218v1021h-143z" />
<glyph unicode="&#xfb03;" horiz-adv-x="1507" d="M38 1021v163h143v61q0 72 5 122t21 97t43.5 75t74 44.5t112.5 16.5q54 0 142 -11v-164q-80 10 -81 10q-60 0 -79.5 -37.5t-19.5 -114.5v-99h274v61q0 72 5 122t21 97t43.5 75t74 44.5t112.5 16.5q52 0 142 -11v-164q-8 1 -25.5 3.5l-31.5 4.5t-24 2q-60 0 -79.5 -37.5 t-19.5 -114.5v-99h492v-1184h-218v1021h-274v-1021h-218v1021h-274v-1021h-218v1021h-143zM1165 1359v230h219v-230h-219z" />
<glyph unicode="&#xfb04;" horiz-adv-x="1589" d="M38 1021v163h143v61q0 72 5 122t21 97t43.5 75t74 44.5t112.5 16.5q54 0 142 -11v-164q-80 10 -81 10q-60 0 -79.5 -37.5t-19.5 -114.5v-99h181v-163h-181v-1021h-218v1021h-143zM523 1021v163h143v61q0 72 5 122t21 97t43.5 75t74 44.5t112.5 16.5q54 0 142 -11v-164 q-80 10 -81 10q-60 0 -79.5 -37.5t-19.5 -114.5v-99h181v-163h-181v-1021h-218v1021h-143zM1169 0v1184h219v-1184h-219zM1169 1359v230h220v-230h-220z" />
</font>
</defs>
</svg>
